» » Mom Son Videos 3D (9 clips) [2012] [eng] [uncen]

Mom Son Videos 3D (9 clips) [2012] [eng] [uncen]

Mom Son Videos 3D (9 clips) [2012] [eng] [uncen]
27 January 2016
  • Artist:
    Mom Son Videos 3D
  • Size:
    558.1 Mb.
  • Category:
    Video

Date: 2012
Genre: Milf, Mommy, Big Tits,
language:English
Censorship: None

Name movie:
A naughty boy and his even naughtier mom - 00:04:11
Boy gives his mother a good sex - 00:03:59
Decent housewife tries incest shagging - 00:04:06
Her son's cock is better than any dildo - 00:03:50
Mommy addicted to the flavor of jizzum - 00:04:15
Mommy attacks son's squeaky clean dick - 00:03:57
Nudist habits grow into incest ones - 00:04:06
Sonny gives mom a wild wakeup fucking - 00:04:06
This loose mommy is a ticking sex bomb - 00:04:01

Video: Windows Media Video 9 640x360 25.00fps 2000kbps
ID: 1
Format: VC-1
Format profile: MP @ ML
Codec ID: WMV3
Codec ID / Info: Windows Media Video 9
Codec ID / Hint: WMV3
Description of the codec: Windows Media Video 9
Duration: 4mn 10s
Bit rate mode: Constant
Bit rate: 000 Kbps 2
Width: 640 pixels
Height: 360 pixels
Display aspect ratio: 16: 9
Frame rate: 24.000 fps
Nominal frame rate: 25.000 fps
Bit depth: 8 bits
Scan type: Progressive
Compression mode: Lossy
Bits / (Pixel * Frame): 0.362
Stream size: 59.8 MiB (94%)
Language: English (US)

Audio: Windows Media Audio 48000Hz stereo 192kbps
ID: 2
Format: WMA
Format version: Version 2
ID Codec: 161
Codec ID / Info: Windows Media Audio
Description of the codec: Windows Media Audio 9.2 - 128 kbps, 48 ​​kHz, stereo 1-pass CBR
Duration: 4mn 10s
Bit rate mode: Constant
Bit rate: 128 Kbps
Channel (s): 2 channels
Sampling rate: 48.0 KHz
Bit depth: 16 bits
Stream size: 3.83 MiB (6%)
Language: English (US)


Download from FlorenFile.com





Mom Son Videos 3D (9 clips) [2012] [eng] [uncen] Mom Son Videos 3D (9 clips) [2012] [eng] [uncen] Mom Son Videos 3D (9 clips) [2012] [eng] [uncen] Mom Son Videos 3D (9 clips) [2012] [eng] [uncen] Mom Son Videos 3D (9 clips) [2012] [eng] [uncen] Mom Son Videos 3D (9 clips) [2012] [eng] [uncen] Mom Son Videos 3D (9 clips) [2012] [eng] [uncen]
Mom Son Videos 3D (9 clips) [2012] [eng] [uncen] Mom Son Videos 3D (9 clips) [2012] [eng] [uncen]
0
3 212
+1 2
Comments 0
Comments
Information
Members of Guests cannot leave comments.