» » Alice/Trance Doll/Nokia/DoLLBox2/DoLLBox/BBG3 custom/Stargate3D/Balance Ball Girl/ Sister (Stargate) [2012-2015] [cen] [jap]

Alice/Trance Doll/Nokia/DoLLBox2/DoLLBox/BBG3 custom/Stargate3D/Balance Ball Girl/ Sister (Stargate) [2012-2015] [cen] [jap]

Alice/Trance Doll/Nokia/DoLLBox2/DoLLBox/BBG3 custom/Stargate3D/Balance Ball Girl/ Sister (Stargate) [2012-2015] [cen] [jap]
8 January 2016
  • Artist:
    Stargate
  • Size:
    1611.8 Mb.
  • Category:
    Video

Year:2012-2015
Genre :Big tits, Dirty Talk, Younger Sister, Underwear, Incest, Oral, POV
Censorship: Are all files

Language: Japanese
Postproduction: Original
Studio: Stargate

Video
ID : 0
Format : VC-1
Codec ID : WMV3
Codec ID/Info : Windows Media Video 9
Codec ID/Hint : WMV3
Duration : 3mn 39s
Bit rate : 1 648 Kbps
Width : 856 pixels
Height : 640 pixels
Display aspect ratio : 4:3
Frame rate : 10.000 fps
Bit depth : 8 bits
Compression mode : Lossy
Bits/(Pixel*Frame) : 0.301
Stream size : 43.2 MiB (54%)

Audio
ID : 1
Format : PCM
Format settings, Endianness : Little
Format settings, Sign : Signed
Codec ID : 1
Duration : 3mn 39s
Bit rate mode : Constant
Bit rate : 1 411.2 Kbps
Channel(s) : 2 channels
Sampling rate : 44.1 KHz
Bit depth : 16 bits
Stream size : 37.0 MiB (46%)
Interleave, duration : 371 ms (3.71 video frames)


Download from FlorenFile.com





 Alice/Trance Doll/Nokia/DoLLBox2/DoLLBox/BBG3 custom/Stargate3D/Balance Ball Girl/ Sister (Stargate) [2012-2015] [cen] [jap]  Alice/Trance Doll/Nokia/DoLLBox2/DoLLBox/BBG3 custom/Stargate3D/Balance Ball Girl/ Sister (Stargate) [2012-2015] [cen] [jap]  Alice/Trance Doll/Nokia/DoLLBox2/DoLLBox/BBG3 custom/Stargate3D/Balance Ball Girl/ Sister (Stargate) [2012-2015] [cen] [jap]  Alice/Trance Doll/Nokia/DoLLBox2/DoLLBox/BBG3 custom/Stargate3D/Balance Ball Girl/ Sister (Stargate) [2012-2015] [cen] [jap]  Alice/Trance Doll/Nokia/DoLLBox2/DoLLBox/BBG3 custom/Stargate3D/Balance Ball Girl/ Sister (Stargate) [2012-2015] [cen] [jap]  Alice/Trance Doll/Nokia/DoLLBox2/DoLLBox/BBG3 custom/Stargate3D/Balance Ball Girl/ Sister (Stargate) [2012-2015] [cen] [jap]  Alice/Trance Doll/Nokia/DoLLBox2/DoLLBox/BBG3 custom/Stargate3D/Balance Ball Girl/ Sister (Stargate) [2012-2015] [cen] [jap]
0
819
+11 4
Comments 0
Comments
Information
Members of Guests cannot leave comments.