» » @Oz - Roribitchi Flandre [cen] [jap] [720p] [2015]

@Oz - Roribitchi Flandre [cen] [jap] [720p] [2015]

@Oz - Roribitchi Flandre [cen] [jap] [720p] [2015]
27 December 2015
  • Artist:
    @Oz
  • Pages:
    10:14
  • Size:
    240.5 Mb.
  • Category:
    Video

Year: 2015
Category : insults , fellatio , Harapan, Ryona
Duration: 10:14
Censorship: Is

Language: Japanese
Studio : Oz

Description : Vampire girl who was sealed destructive magic in the dungeon who was imprisoned

Video quality : GameRip
Video resolution : 720p
Video format : WMV
Video : Windows Media Video 9 1280x720 30fps 3000kbps [Raw Video 0 ]
1 Audio : WMA Pro 48000Hz 384Kbps 6CH [ Raw Audio 1 ]

Video
ID : 1
Format : VC-1
Format profile : [email protected]
Codec ID : WMV3
Codec ID/Info : Windows Media Video 9
Codec ID/Hint : WMV3
Description of the codec : Windows Media Video 9 - Professional
Duration : 10mn 14s
Bit rate mode : Constant
Bit rate : 3 000 Kbps
Width : 1 280 pixels
Height : 720 pixels
Display aspect ratio : 16:9
Frame rate : 30.000 fps
Bit depth : 8 bits
Scan type : Progressive
Compression mode : Lossy
Bits/(Pixel*Frame) : 0.109
Stream size : 220 MiB (90%)
Language : Latvian

Audio
ID : 2
Format : WMA
Format profile : Pro
Codec ID : 162
Codec ID/Info : Windows Media Audio
Description of the codec : Windows Media Audio 10 Professional - 384 kbps, 48 kHz, 5.1 channel 16 bit 1-pass CBR
Duration : 10mn 14s
Bit rate mode : Constant
Bit rate : 384 Kbps
Channel(s) : 6 channels
Sampling rate : 48.0 KHz
Bit depth : 16 bits
Stream size : 28.1 MiB (12%)


Download from FlorenFile.com





@Oz - Roribitchi Flandre [cen] [jap] [720p] [2015]
0
502
0 0
Comments 0
Comments
Information
Members of Guests cannot leave comments.